<svg xmlns="http://www.w3.org/2000/svg">
<defs>
<font
         id="font1"
         horiz-adv-x="75"
         horiz-origin-x="0"
         horiz-origin-y="0"
         vert-origin-x="45"
         vert-origin-y="90"
         vert-adv-y="90">
        <font-face
           id="font-face75"
           font-weight="normal"
           font-style="normal"
           font-family="sans-serif"
           units-per-em="100"
           descent="21.972656"
           ascent="100.53711" />
        <missing-glyph
           id="missing-glyph77"
           d="M12.5 0 L12.5 62.5 L62.5 62.5 L62.5 0 L12.5 0 ZM14.0625 1.5625 L60.9375 1.5625 L60.9375 60.9375 L14.0625 60.9375 L14.0625 1.5625 Z"
           horiz-adv-x="75.0" />
        <glyph
           id="glyph79"
           d="M3.078125 15.484375 L11.765625 16.84375 Q12.5 11.625 15.84375 8.84375 Q19.1875 6.0625 25.203125 6.0625 Q31.25 6.0625 34.1796875 8.5234375 Q37.109375 10.984375 37.109375 14.3125 Q37.109375 17.28125 34.515625 19 Q32.71875 20.171875 25.53125 21.96875 Q15.875 24.421875 12.140625 26.203125 Q8.40625 27.984375 6.4765625 31.1328125 Q4.546875 34.28125 4.546875 38.09375 Q4.546875 41.546875 6.1328125 44.5078125 Q7.71875 47.46875 10.453125 49.421875 Q12.5 50.921875 16.0390625 51.9765625 Q19.578125 53.03125 23.640625 53.03125 Q29.734375 53.03125 34.3515625 51.2734375 Q38.96875 49.515625 41.1640625 46.5078125 Q43.359375 43.5 44.1875 38.484375 L35.59375 37.3125 Q35.015625 41.3125 32.203125 43.5546875 Q29.390625 45.796875 24.265625 45.796875 Q18.21875 45.796875 15.625 43.796875 Q13.03125 41.796875 13.03125 39.109375 Q13.03125 37.40625 14.109375 36.03125 Q15.1875 34.625 17.484375 33.6875 Q18.796875 33.203125 25.25 31.453125 Q34.578125 28.953125 38.2578125 27.3671875 Q41.9375 25.78125 44.0390625 22.7578125 Q46.140625 19.734375 46.140625 15.234375 Q46.140625 10.84375 43.578125 6.9609375 Q41.015625 3.078125 36.1796875 0.953125 Q31.34375 -1.171875 25.25 -1.171875 Q15.140625 -1.171875 9.84375 3.03125 Q4.546875 7.234375 3.078125 15.484375 Z"
           horiz-adv-x="50.0"
           unicode="s" />
        <glyph
           id="glyph81"
           d=""
           horiz-adv-x="28.0"
           unicode=" " />
        <glyph
           id="glyph83"
           d="M6.390625 0 L6.390625 71.578125 L15.1875 71.578125 L15.1875 0 L6.390625 0 Z"
           horiz-adv-x="22.0"
           unicode="l" />
        <glyph
           id="glyph85"
           d="M40.4375 6.390625 Q35.546875 2.25 31.03125 0.5390625 Q26.515625 -1.171875 21.34375 -1.171875 Q12.796875 -1.171875 8.203125 3 Q3.609375 7.171875 3.609375 13.671875 Q3.609375 17.484375 5.34375 20.6328125 Q7.078125 23.78125 9.890625 25.6875 Q12.703125 27.59375 16.21875 28.5625 Q18.796875 29.25 24.03125 29.890625 Q34.671875 31.15625 39.703125 32.90625 Q39.75 34.71875 39.75 35.203125 Q39.75 40.578125 37.25 42.78125 Q33.890625 45.75 27.25 45.75 Q21.046875 45.75 18.09375 43.578125 Q15.140625 41.40625 13.71875 35.890625 L5.125 37.0625 Q6.296875 42.578125 8.984375 45.96875 Q11.671875 49.359375 16.75 51.1953125 Q21.828125 53.03125 28.515625 53.03125 Q35.15625 53.03125 39.3046875 51.46875 Q43.453125 49.90625 45.40625 47.5390625 Q47.359375 45.171875 48.140625 41.546875 Q48.578125 39.3125 48.578125 33.453125 L48.578125 21.734375 Q48.578125 9.46875 49.140625 6.2265625 Q49.703125 2.984375 51.375 0 L42.1875 0 Q40.828125 2.734375 40.4375 6.390625 ZM39.703125 26.03125 Q34.90625 24.078125 25.34375 22.703125 Q19.921875 21.921875 17.6796875 20.9453125 Q15.4375 19.96875 14.2109375 18.09375 Q12.984375 16.21875 12.984375 13.921875 Q12.984375 10.40625 15.6484375 8.0625 Q18.3125 5.71875 23.4375 5.71875 Q28.515625 5.71875 32.46875 7.9375 Q36.421875 10.15625 38.28125 14.015625 Q39.703125 17 39.703125 22.796875 L39.703125 26.03125 Z"
           horiz-adv-x="56.0"
           unicode="a" />
        <glyph
           id="glyph87"
           d="M6.640625 61.46875 L6.640625 71.578125 L15.4375 71.578125 L15.4375 61.46875 L6.640625 61.46875 ZM6.640625 0 L6.640625 51.859375 L15.4375 51.859375 L15.4375 0 L6.640625 0 Z"
           horiz-adv-x="22.0"
           unicode="i" />
        <glyph
           id="glyph89"
           d="M40.578125 0 L40.578125 7.625 Q34.515625 -1.171875 24.125 -1.171875 Q19.53125 -1.171875 15.5546875 0.5859375 Q11.578125 2.34375 9.6484375 5.0078125 Q7.71875 7.671875 6.9375 11.53125 Q6.390625 14.109375 6.390625 19.734375 L6.390625 51.859375 L15.1875 51.859375 L15.1875 23.09375 Q15.1875 16.21875 15.71875 13.8125 Q16.546875 10.359375 19.234375 8.375 Q21.921875 6.390625 25.875 6.390625 Q29.828125 6.390625 33.296875 8.421875 Q36.765625 10.453125 38.2109375 13.9453125 Q39.65625 17.4375 39.65625 24.078125 L39.65625 51.859375 L48.4375 51.859375 L48.4375 0 L40.578125 0 Z"
           horiz-adv-x="56.0"
           unicode="u" />
        <glyph
           id="glyph91"
           d="M6.59375 -19.875 L6.59375 51.859375 L14.59375 51.859375 L14.59375 45.125 Q17.4375 49.078125 21 51.0546875 Q24.5625 53.03125 29.640625 53.03125 Q36.28125 53.03125 41.359375 49.609375 Q46.4375 46.1875 49.0234375 39.9609375 Q51.609375 33.734375 51.609375 26.3125 Q51.609375 18.359375 48.7578125 11.984375 Q45.90625 5.609375 40.4609375 2.21875 Q35.015625 -1.171875 29 -1.171875 Q24.609375 -1.171875 21.1171875 0.6875 Q17.625 2.546875 15.375 5.375 L15.375 -19.875 L6.59375 -19.875 ZM14.546875 25.640625 Q14.546875 15.625 18.6015625 10.84375 Q22.65625 6.0625 28.421875 6.0625 Q34.28125 6.0625 38.453125 11.015625 Q42.625 15.96875 42.625 26.375 Q42.625 36.28125 38.546875 41.2109375 Q34.46875 46.140625 28.8125 46.140625 Q23.1875 46.140625 18.8671875 40.890625 Q14.546875 35.640625 14.546875 25.640625 Z"
           horiz-adv-x="56.0"
           unicode="p" />
        <glyph
           id="glyph93"
           d="M42.09375 16.703125 L51.171875 15.578125 Q49.03125 7.625 43.21875 3.2265625 Q37.40625 -1.171875 28.375 -1.171875 Q17 -1.171875 10.328125 5.8359375 Q3.65625 12.84375 3.65625 25.484375 Q3.65625 38.578125 10.3984375 45.8046875 Q17.140625 53.03125 27.875 53.03125 Q38.28125 53.03125 44.875 45.953125 Q51.46875 38.875 51.46875 26.03125 Q51.46875 25.25 51.421875 23.6875 L12.75 23.6875 Q13.234375 15.140625 17.578125 10.6015625 Q21.921875 6.0625 28.421875 6.0625 Q33.25 6.0625 36.671875 8.6015625 Q40.09375 11.140625 42.09375 16.703125 ZM13.234375 30.90625 L42.1875 30.90625 Q41.609375 37.453125 38.875 40.71875 Q34.671875 45.796875 27.984375 45.796875 Q21.921875 45.796875 17.796875 41.75 Q13.671875 37.703125 13.234375 30.90625 Z"
           horiz-adv-x="56.0"
           unicode="e" />
        <glyph
           id="glyph95"
           d="M6.5 0 L6.5 51.859375 L14.40625 51.859375 L14.40625 44 Q17.4375 49.515625 20 51.2734375 Q22.5625 53.03125 25.640625 53.03125 Q30.078125 53.03125 34.671875 50.203125 L31.640625 42.046875 Q28.421875 43.953125 25.203125 43.953125 Q22.3125 43.953125 20.015625 42.21875 Q17.71875 40.484375 16.75 37.40625 Q15.28125 32.71875 15.28125 27.15625 L15.28125 0 L6.5 0 Z"
           horiz-adv-x="33.0"
           unicode="r" />
        <glyph
           id="glyph97"
           d="M25.78125 7.859375 L27.046875 0.09375 Q23.34375 -0.6875 20.40625 -0.6875 Q15.625 -0.6875 12.9921875 0.828125 Q10.359375 2.34375 9.28125 4.8125 Q8.203125 7.28125 8.203125 15.1875 L8.203125 45.015625 L1.765625 45.015625 L1.765625 51.859375 L8.203125 51.859375 L8.203125 64.703125 L16.9375 69.96875 L16.9375 51.859375 L25.78125 51.859375 L25.78125 45.015625 L16.9375 45.015625 L16.9375 14.703125 Q16.9375 10.9375 17.40625 9.8671875 Q17.875 8.796875 18.921875 8.15625 Q19.96875 7.515625 21.921875 7.515625 Q23.390625 7.515625 25.78125 7.859375 Z"
           horiz-adv-x="28.0"
           unicode="t" />
        <glyph
           id="glyph99"
           d="M6.59375 0 L6.59375 51.859375 L14.5 51.859375 L14.5 44.484375 Q20.21875 53.03125 31 53.03125 Q35.6875 53.03125 39.625 51.34375 Q43.5625 49.65625 45.515625 46.921875 Q47.46875 44.1875 48.25 40.4375 Q48.734375 37.984375 48.734375 31.890625 L48.734375 0 L39.9375 0 L39.9375 31.546875 Q39.9375 36.921875 38.9140625 39.578125 Q37.890625 42.234375 35.28125 43.8203125 Q32.671875 45.40625 29.15625 45.40625 Q23.53125 45.40625 19.453125 41.84375 Q15.375 38.28125 15.375 28.328125 L15.375 0 L6.59375 0 Z"
           horiz-adv-x="56.0"
           unicode="n" />
        <glyph
           id="glyph101"
           d="M7.90625 0 L7.90625 71.578125 L59.671875 71.578125 L59.671875 63.140625 L17.390625 63.140625 L17.390625 41.21875 L56.984375 41.21875 L56.984375 32.8125 L17.390625 32.8125 L17.390625 8.453125 L61.328125 8.453125 L61.328125 0 L7.90625 0 Z"
           horiz-adv-x="67.0"
           unicode="E" />
        <glyph
           id="glyph103"
           d="M40.4375 19 L49.078125 17.875 Q47.65625 8.9375 41.8203125 3.8828125 Q35.984375 -1.171875 27.484375 -1.171875 Q16.84375 -1.171875 10.375 5.7890625 Q3.90625 12.75 3.90625 25.734375 Q3.90625 34.125 6.6875 40.4296875 Q9.46875 46.734375 15.15625 49.8828125 Q20.84375 53.03125 27.546875 53.03125 Q35.984375 53.03125 41.359375 48.7578125 Q46.734375 44.484375 48.25 36.625 L39.703125 35.296875 Q38.484375 40.53125 35.3828125 43.1640625 Q32.28125 45.796875 27.875 45.796875 Q21.234375 45.796875 17.0859375 41.0390625 Q12.9375 36.28125 12.9375 25.984375 Q12.9375 15.53125 16.9453125 10.796875 Q20.953125 6.0625 27.390625 6.0625 Q32.5625 6.0625 36.03125 9.234375 Q39.5 12.40625 40.4375 19 Z"
           horiz-adv-x="50.0"
           unicode="c" />
        <glyph
           id="glyph105"
           d="M21 0 L1.265625 51.859375 L10.546875 51.859375 L21.6875 20.796875 Q23.484375 15.765625 25 10.359375 Q26.171875 14.453125 28.265625 20.21875 L39.796875 51.859375 L48.828125 51.859375 L29.203125 0 L21 0 Z"
           horiz-adv-x="49.0"
           unicode="v" />
        <glyph
           id="glyph107"
           d="M6.59375 0 L6.59375 51.859375 L14.453125 51.859375 L14.453125 44.578125 Q16.890625 48.390625 20.9453125 50.7109375 Q25 53.03125 30.171875 53.03125 Q35.9375 53.03125 39.625 50.640625 Q43.3125 48.25 44.828125 43.953125 Q50.984375 53.03125 60.84375 53.03125 Q68.5625 53.03125 72.7109375 48.7578125 Q76.859375 44.484375 76.859375 35.59375 L76.859375 0 L68.109375 0 L68.109375 32.671875 Q68.109375 37.9375 67.2578125 40.2578125 Q66.40625 42.578125 64.1640625 43.9921875 Q61.921875 45.40625 58.890625 45.40625 Q53.421875 45.40625 49.8046875 41.7734375 Q46.1875 38.140625 46.1875 30.125 L46.1875 0 L37.40625 0 L37.40625 33.6875 Q37.40625 39.546875 35.2578125 42.4765625 Q33.109375 45.40625 28.21875 45.40625 Q24.515625 45.40625 21.3671875 43.453125 Q18.21875 41.5 16.796875 37.7421875 Q15.375 33.984375 15.375 26.90625 L15.375 0 L6.59375 0 Z"
           horiz-adv-x="84.0"
           unicode="m" />
        <glyph
           id="glyph109"
           d="M3.328125 25.921875 Q3.328125 40.328125 11.328125 47.265625 Q18.015625 53.03125 27.640625 53.03125 Q38.328125 53.03125 45.1171875 46.0234375 Q51.90625 39.015625 51.90625 26.65625 Q51.90625 16.65625 48.90625 10.9140625 Q45.90625 5.171875 40.1640625 2 Q34.421875 -1.171875 27.640625 -1.171875 Q16.75 -1.171875 10.0390625 5.8125 Q3.328125 12.796875 3.328125 25.921875 ZM12.359375 25.921875 Q12.359375 15.96875 16.703125 11.015625 Q21.046875 6.0625 27.640625 6.0625 Q34.1875 6.0625 38.53125 11.0390625 Q42.875 16.015625 42.875 26.21875 Q42.875 35.84375 38.5 40.796875 Q34.125 45.75 27.640625 45.75 Q21.046875 45.75 16.703125 40.8203125 Q12.359375 35.890625 12.359375 25.921875 Z"
           horiz-adv-x="56.0"
           unicode="o" />
        <glyph
           id="glyph111"
           d="M58.796875 25.09375 L68.265625 22.703125 Q65.28125 11.03125 57.546875 4.90625 Q49.8125 -1.21875 38.625 -1.21875 Q27.046875 -1.21875 19.796875 3.4921875 Q12.546875 8.203125 8.765625 17.140625 Q4.984375 26.078125 4.984375 36.328125 Q4.984375 47.515625 9.2578125 55.8359375 Q13.53125 64.15625 21.4140625 68.4765625 Q29.296875 72.796875 38.765625 72.796875 Q49.515625 72.796875 56.8359375 67.328125 Q64.15625 61.859375 67.046875 51.953125 L57.71875 49.75 Q55.21875 57.5625 50.484375 61.1328125 Q45.75 64.703125 38.578125 64.703125 Q30.328125 64.703125 24.78125 60.7421875 Q19.234375 56.78125 16.9921875 50.1171875 Q14.75 43.453125 14.75 36.375 Q14.75 27.25 17.40625 20.4375 Q20.0625 13.625 25.6796875 10.2578125 Q31.296875 6.890625 37.84375 6.890625 Q45.796875 6.890625 51.3203125 11.4765625 Q56.84375 16.0625 58.796875 25.09375 Z"
           horiz-adv-x="72.0"
           unicode="C" />
        <glyph
           id="glyph113"
           d="M4.984375 -4.296875 L13.53125 -5.5625 Q14.0625 -9.515625 16.5 -11.328125 Q19.78125 -13.765625 25.4375 -13.765625 Q31.546875 -13.765625 34.8671875 -11.328125 Q38.1875 -8.890625 39.359375 -4.5 Q40.046875 -1.8125 39.984375 6.78125 Q34.234375 0 25.640625 0 Q14.9375 0 9.078125 7.71875 Q3.21875 15.4375 3.21875 26.21875 Q3.21875 33.640625 5.90625 39.9140625 Q8.59375 46.1875 13.6953125 49.609375 Q18.796875 53.03125 25.6875 53.03125 Q34.859375 53.03125 40.828125 45.609375 L40.828125 51.859375 L48.921875 51.859375 L48.921875 7.03125 Q48.921875 -5.078125 46.4609375 -10.1328125 Q44 -15.1875 38.6484375 -18.1171875 Q33.296875 -21.046875 25.484375 -21.046875 Q16.21875 -21.046875 10.5 -16.875 Q4.78125 -12.703125 4.984375 -4.296875 ZM12.25 26.859375 Q12.25 16.65625 16.3046875 11.96875 Q20.359375 7.28125 26.46875 7.28125 Q32.515625 7.28125 36.6171875 11.9453125 Q40.71875 16.609375 40.71875 26.5625 Q40.71875 36.078125 36.5 40.9140625 Q32.28125 45.75 26.3125 45.75 Q20.453125 45.75 16.3515625 40.9921875 Q12.25 36.234375 12.25 26.859375 Z"
           horiz-adv-x="55.0"
           unicode="g" />
        <glyph
           id="glyph115"
           d="M7.328125 0 L7.328125 71.578125 L34.1875 71.578125 Q42.390625 71.578125 47.34375 69.40625 Q52.296875 67.234375 55.1015625 62.71875 Q57.90625 58.203125 57.90625 53.265625 Q57.90625 48.6875 55.421875 44.6328125 Q52.9375 40.578125 47.90625 38.09375 Q54.390625 36.1875 57.8828125 31.59375 Q61.375 27 61.375 20.75 Q61.375 15.71875 59.25 11.3984375 Q57.125 7.078125 54 4.734375 Q50.875 2.390625 46.1640625 1.1953125 Q41.453125 0 34.625 0 L7.328125 0 ZM16.796875 41.5 L32.28125 41.5 Q38.578125 41.5 41.3125 42.328125 Q44.921875 43.40625 46.75 45.8984375 Q48.578125 48.390625 48.578125 52.15625 Q48.578125 55.71875 46.875 58.4296875 Q45.171875 61.140625 41.9921875 62.140625 Q38.8125 63.140625 31.109375 63.140625 L16.796875 63.140625 L16.796875 41.5 ZM16.796875 8.453125 L34.625 8.453125 Q39.203125 8.453125 41.0625 8.796875 Q44.34375 9.375 46.5390625 10.7421875 Q48.734375 12.109375 50.1484375 14.71875 Q51.5625 17.328125 51.5625 20.75 Q51.5625 24.75 49.515625 27.7109375 Q47.46875 30.671875 43.828125 31.8671875 Q40.1875 33.0625 33.34375 33.0625 L16.796875 33.0625 L16.796875 8.453125 Z"
           horiz-adv-x="67.0"
           unicode="B" />
        <glyph
           id="glyph117"
           d="M8.6875 0 L8.6875 45.015625 L0.921875 45.015625 L0.921875 51.859375 L8.6875 51.859375 L8.6875 57.375 Q8.6875 62.59375 9.625 65.140625 Q10.890625 68.5625 14.0859375 70.6796875 Q17.28125 72.796875 23.046875 72.796875 Q26.765625 72.796875 31.25 71.921875 L29.9375 64.265625 Q27.203125 64.75 24.75 64.75 Q20.75 64.75 19.09375 63.0390625 Q17.4375 61.328125 17.4375 56.640625 L17.4375 51.859375 L27.546875 51.859375 L27.546875 45.015625 L17.4375 45.015625 L17.4375 0 L8.6875 0 Z"
           horiz-adv-x="29.0"
           unicode="f" />
        <glyph
           id="glyph119"
           d="M40.234375 0 L40.234375 6.546875 Q35.296875 -1.171875 25.734375 -1.171875 Q19.53125 -1.171875 14.328125 2.25 Q9.125 5.671875 6.2734375 11.796875 Q3.421875 17.921875 3.421875 25.875 Q3.421875 33.640625 6.0078125 39.96875 Q8.59375 46.296875 13.7734375 49.6640625 Q18.953125 53.03125 25.34375 53.03125 Q30.03125 53.03125 33.6953125 51.0546875 Q37.359375 49.078125 39.65625 45.90625 L39.65625 71.578125 L48.390625 71.578125 L48.390625 0 L40.234375 0 ZM12.453125 25.875 Q12.453125 15.921875 16.6484375 10.9921875 Q20.84375 6.0625 26.5625 6.0625 Q32.328125 6.0625 36.3515625 10.7734375 Q40.375 15.484375 40.375 25.140625 Q40.375 35.796875 36.2734375 40.7734375 Q32.171875 45.75 26.171875 45.75 Q20.3125 45.75 16.3828125 40.96875 Q12.453125 36.1875 12.453125 25.875 Z"
           horiz-adv-x="56.0"
           unicode="d" />
        <glyph
           id="glyph121"
           d="M8.015625 0 L8.015625 71.578125 L17.484375 71.578125 L17.484375 42.1875 L54.6875 42.1875 L54.6875 71.578125 L64.15625 71.578125 L64.15625 0 L54.6875 0 L54.6875 33.734375 L17.484375 33.734375 L17.484375 0 L8.015625 0 Z"
           horiz-adv-x="72.0"
           unicode="H" />
        <glyph
           id="glyph123"
           d="M6.640625 0 L6.640625 71.578125 L15.4375 71.578125 L15.4375 30.765625 L36.234375 51.859375 L47.609375 51.859375 L27.78125 32.625 L49.609375 0 L38.765625 0 L21.625 26.515625 L15.4375 20.5625 L15.4375 0 L6.640625 0 Z"
           horiz-adv-x="50.0"
           unicode="k" />
        <glyph
           id="glyph125"
           d="M16.15625 0 L0.296875 51.859375 L9.375 51.859375 L17.625 21.921875 L20.703125 10.796875 Q20.90625 11.625 23.390625 21.484375 L31.640625 51.859375 L40.671875 51.859375 L48.4375 21.78125 L51.03125 11.859375 L54 21.875 L62.890625 51.859375 L71.4375 51.859375 L55.21875 0 L46.09375 0 L37.84375 31.0625 L35.84375 39.890625 L25.34375 0 L16.15625 0 Z"
           horiz-adv-x="71.0"
           unicode="w" />
        <glyph
           id="glyph127"
           d="M7.625 0 L7.625 71.578125 L17.328125 71.578125 L54.9375 15.375 L54.9375 71.578125 L64.015625 71.578125 L64.015625 0 L54.296875 0 L16.703125 56.25 L16.703125 0 L7.625 0 Z"
           horiz-adv-x="72.0"
           unicode="N" />
        <glyph
           id="glyph129"
           d="M9.328125 0 L9.328125 71.578125 L18.796875 71.578125 L18.796875 0 L9.328125 0 Z"
           horiz-adv-x="28.0"
           unicode="I" />
        <glyph
           id="glyph131"
           d="M6.59375 0 L6.59375 71.578125 L15.375 71.578125 L15.375 45.90625 Q21.53125 53.03125 30.90625 53.03125 Q36.671875 53.03125 40.921875 50.7578125 Q45.171875 48.484375 47 44.484375 Q48.828125 40.484375 48.828125 32.859375 L48.828125 0 L40.046875 0 L40.046875 32.859375 Q40.046875 39.453125 37.1875 42.453125 Q34.328125 45.453125 29.109375 45.453125 Q25.203125 45.453125 21.7578125 43.4296875 Q18.3125 41.40625 16.84375 37.9375 Q15.375 34.46875 15.375 28.375 L15.375 0 L6.59375 0 Z"
           horiz-adv-x="56.0"
           unicode="h" />
        <glyph
           id="glyph133"
           d="M7.328125 0 L7.328125 71.578125 L16.796875 71.578125 L16.796875 8.453125 L52.046875 8.453125 L52.046875 0 L7.328125 0 Z"
           horiz-adv-x="56.0"
           unicode="L" />
        <glyph
           id="glyph135"
           d="M6.203125 -19.96875 L5.21875 -11.71875 Q8.109375 -12.5 10.25 -12.5 Q13.1875 -12.5 14.9453125 -11.5234375 Q16.703125 -10.546875 17.828125 -8.796875 Q18.65625 -7.46875 20.515625 -2.25 Q20.75 -1.515625 21.296875 -0.09375 L1.609375 51.859375 L11.078125 51.859375 L21.875 21.828125 Q23.96875 16.109375 25.640625 9.8125 Q27.15625 15.875 29.25 21.625 L40.328125 51.859375 L49.125 51.859375 L29.390625 -0.875 Q26.21875 -9.421875 24.46875 -12.640625 Q22.125 -17 19.09375 -19.0234375 Q16.0625 -21.046875 11.859375 -21.046875 Q9.328125 -21.046875 6.203125 -19.96875 Z"
           horiz-adv-x="49.0"
           unicode="y" />
        <glyph
           id="glyph137"
           d="M25.921875 0 L25.921875 63.140625 L2.34375 63.140625 L2.34375 71.578125 L59.078125 71.578125 L59.078125 63.140625 L35.40625 63.140625 L35.40625 0 L25.921875 0 Z"
           horiz-adv-x="62.0"
           unicode="T" />
        <glyph
           id="glyph139"
           d="M4.5 23 L13.421875 23.78125 Q14.0625 18.40625 16.3828125 14.96875 Q18.703125 11.53125 23.5859375 9.40625 Q28.46875 7.28125 34.578125 7.28125 Q39.984375 7.28125 44.140625 8.890625 Q48.296875 10.5 50.3203125 13.3046875 Q52.34375 16.109375 52.34375 19.4375 Q52.34375 22.796875 50.390625 25.3125 Q48.4375 27.828125 43.953125 29.546875 Q41.0625 30.671875 31.203125 33.0390625 Q21.34375 35.40625 17.390625 37.5 Q12.25 40.1875 9.7421875 44.1640625 Q7.234375 48.140625 7.234375 53.078125 Q7.234375 58.5 10.3046875 63.2109375 Q13.375 67.921875 19.2890625 70.359375 Q25.203125 72.796875 32.421875 72.796875 Q40.375 72.796875 46.4609375 70.234375 Q52.546875 67.671875 55.8125 62.6953125 Q59.078125 57.71875 59.328125 51.421875 L50.25 50.734375 Q49.515625 57.515625 45.2890625 60.984375 Q41.0625 64.453125 32.8125 64.453125 Q24.21875 64.453125 20.2890625 61.3046875 Q16.359375 58.15625 16.359375 53.71875 Q16.359375 49.859375 19.140625 47.359375 Q21.875 44.875 33.421875 42.265625 Q44.96875 39.65625 49.265625 37.703125 Q55.515625 34.8125 58.4921875 30.3984375 Q61.46875 25.984375 61.46875 20.21875 Q61.46875 14.5 58.203125 9.4453125 Q54.9375 4.390625 48.8046875 1.5859375 Q42.671875 -1.21875 35.015625 -1.21875 Q25.296875 -1.21875 18.7265625 1.609375 Q12.15625 4.4375 8.421875 10.1328125 Q4.6875 15.828125 4.5 23 Z"
           horiz-adv-x="67.0"
           unicode="S" />
        <glyph
           id="glyph141"
           d="M-0.140625 0 L27.34375 71.578125 L37.546875 71.578125 L66.84375 0 L56.0625 0 L47.703125 21.6875 L17.78125 21.6875 L9.90625 0 L-0.140625 0 ZM20.515625 29.390625 L44.78125 29.390625 L37.3125 49.21875 Q33.890625 58.25 32.234375 64.0625 Q30.859375 57.171875 28.375 50.390625 L20.515625 29.390625 Z"
           horiz-adv-x="67.0"
           unicode="A" />
      </font>
</defs>
</svg>
